Digital World | ชมคลิปเกมเพลย์เกม Jump Force เกมแนวต่อสู้รวมตัวละครค่าย shonen jump | Forged in Fire – Wettkampf der Schmiede

Skyscraper (2018) 720p - HDRip - x264 - Line Auds [Hindi + Eng] -...

  • Category Movies
  • Type HD
  • Language English
  • Total size 782.3 MB
  • Uploaded By MovCr
  • Downloads 264
  • Last checked 30 minutes ago
  • Date uploaded 8 hours ago
  • Seeders 25
  • Leechers 7

Skyscraper

ActionThrillerDrama

Framed and on the run, a former FBI agent must save his family from a blazing fire in the world's tallest building.

Infohash : A359811EEB88F3999F957665E9D156DC4B174E12

http://movcr.com

Skyscraper (2018) 720p - HDRip - x264 - Line Auds [Hindi + Eng] - 800MB - MovCr


General
Unique ID : 180703763596566704279731910016587898536 (0x87F24768712D8CBD8BF6D648BE419EA8)
Complete name : D:\[MovCr.com] - Skyscraper (2018) 720p - HDRip - x264 - Line Auds [Hindi + Eng] - 800MB - MovCr.mkv
Format : Matroska
Format version : Version 4 / Version 2
File size : 782 MiB
Duration : 1 h 42 min
Overall bit rate mode : Variable
Overall bit rate : 1 068 kb/s
Movie name : www.MovCr.com
Encoded date : UTC 2018-08-10 16:41:57
Writing application : mkvmerge v11.0.0 ('Alive') 32bit
Writing library : libebml v1.3.4 + libmatroska v1.4.5

Video
ID : 1
Format : AVC
Format/Info : Advanced Video Codec
Format profile : [email protected]
Format settings : CABAC / 4 Ref Frames
Format settings, CABAC : Yes
Format settings, ReFrames : 4 frames
Codec ID : V_MPEG4/ISO/AVC
Duration : 1 h 42 min
Bit rate : 892 kb/s
Width : 1 280 pixels
Height : 536 pixels
Display aspect ratio : 2.40:1
Frame rate mode : Constant
Frame rate : 30.000 FPS
Color space : YUV
Chroma subsampling : 4:2:0
Bit depth : 8 bits
Scan type : Progressive
Bits/(Pixel*Frame) : 0.043
Stream size : 653 MiB (84%)
Title : www.MovCr.com
Writing library : x264 core 155 r2901 7d0ff22
Encoding settings : cabac=1 / ref=3 / deblock=1:0:0 / analyse=0x3:0x113 / me=hex / subme=7 / psy=1 / psy_rd=1.00:0.00 / mixed_ref=1 / me_range=16 / chroma_me=1 / trellis=1 / 8x8dct=1 / cqm=0 / deadzone=21,11 / fast_pskip=1 / chroma_qp_offset=-2 / threads=17 / lookahead_threads=2 / sliced_threads=0 / nr=0 / decimate=1 / interlaced=0 / bluray_compat=0 / constrained_intra=0 / bframes=3 / b_pyramid=2 / b_adapt=1 / b_bias=0 / direct=1 / weightb=1 / open_gop=0 / weightp=2 / keyint=300 / keyint_min=30 / scenecut=40 / intra_refresh=0 / rc_lookahead=40 / rc=2pass / mbtree=1 / bitrate=892 / ratetol=1.0 / qcomp=0.60 / qpmin=0 / qpmax=69 / qpstep=4 / cplxblur=20.0 / qblur=0.5 / ip_ratio=1.40 / aq=1:1.00
Language : English
Default : Yes
Forced : No

Audio #1
ID : 2
Format : MPEG Audio
Format version : Version 2
Format profile : Layer 3
Format settings : Joint stereo / MS Stereo
Codec ID : A_MPEG/L3
Codec ID/Hint : MP3
Duration : 1 h 42 min
Bit rate mode : Variable
Bit rate : 86.1 kb/s
Nominal bit rate : 96.0 kb/s
Channel(s) : 2 channels
Sampling rate : 16.0 kHz
Frame rate : 27.778 FPS (576 SPF)
Compression mode : Lossy
Stream size : 63.1 MiB (8%)
Title : www.MovCr.com
Writing library : LAME3.99r
Encoding settings : -m j -V 4 -q 3 -lowpass 8 --abr 96
Language : Hindi
Default : Yes
Forced : No

Audio #2
ID : 3
Format : MPEG Audio
Format version : Version 2
Format profile : Layer 3
Format settings : Joint stereo / MS Stereo
Codec ID : A_MPEG/L3
Codec ID/Hint : MP3
Duration : 1 h 42 min
Bit rate mode : Variable
Bit rate : 87.0 kb/s
Nominal bit rate : 96.0 kb/s
Channel(s) : 2 channels
Sampling rate : 16.0 kHz
Frame rate : 27.778 FPS (576 SPF)
Compression mode : Lossy
Stream size : 63.8 MiB (8%)
Title : www.MovCr.com
Writing library : LAME3.99r
Encoding settings : -m j -V 4 -q 3 -lowpass 8 --abr 96
Language : English
Default : No
Forced : No







Files:

  • [MovCr.com] - Skyscraper (2018) 720p - HDRip - x264 - Line Auds [Hindi + Eng] - 800MB - MovCr.mkv (782.3 MB)

There are currently no comments. Feel free to leave one :)

Code:

  • udp://tracker.openbittorrent.com:80/announce
  • udp://tracker.opentrackr.org:1337/announce
  • udp://tracker.coppersurfer.tk:6969/announce
  • udp://tracker.opentrackr.org:1337/announce
  • udp://tracker.leechers-paradise.org:6969/announce
  • udp://9.rarbg.to:2800/announce
  • udp://eddie4.nl:6969/announce
  • udp://9.rarbg.to:2800/announce
  • udp://tracker.doko.moe:6969/announce
  • udp://thetracker.org:80/announce
  • udp://bt.xxx-tracker.com:2710/announce
  • udp://tracker.vanitycore.co:6969/announce
  • udp://tracker.tiny-vps.com:6969/announce
  • udp://tracker.leechers-paradise.org:6969/announce
  • udp://tracker.opentrackr.org:1337/announce
  • udp://tracker.coppersurfer.tk:6969/announce
  • udp://open.stealth.si:80/announce
  • udp://inferno.demonoid.pw:3418/announce
  • udp://retracker.lanta-net.ru:2710/announce
  • udp://peerfect.org:6969/announce
  • udp://tracker.swateam.org.uk:2710/announce