Electro / Electro Funk | 16 Dec 2017 13,950 2,756 10 | Everwood

The Bodyguard (2016) 720p Hindi Dubbed HDRip x264 AC3 ESub by Ful...

  • Category Movies
  • Type HD
  • Language Spanish
  • Total size 797.8 MB
  • Uploaded By shmasti
  • Downloads 206
  • Last checked 1 month ago
  • Date uploaded 1 month ago
  • Seeders 13
  • Leechers 1

Infohash : 58A766ADC7F67884A6A5EE357D11DB3927102E4B



General
Complete name : The Bodyguard (2016) 720p Hindi Dubbed HDRip x264 AC3 ESub by Full4movies.mkv
Format : Matroska
Format version : Version 4 / Version 2
File size : 798 MiB
Duration : 1 h 25 min
Overall bit rate : 1 306 kb/s
Encoded date : UTC 2018-07-12 18:22:10
Writing application : mkvmerge v8.1.0 ('Psychedelic Postcard') 32bit
Writing library : libebml v1.3.1 + libmatroska v1.4.2
Cover : Yes
Attachments : Covers.jpg

Video
ID : 1
Format : AVC
Format/Info : Advanced Video Codec
Format profile : [email protected]
Format settings, CABAC : Yes
Format settings, RefFrames : 5 frames
Codec ID : V_MPEG4/ISO/AVC
Duration : 1 h 25 min
Bit rate : 1 080 kb/s
Width : 1 280 pixels
Height : 536 pixels
Display aspect ratio : 2.40:1
Frame rate mode : Constant
Frame rate : 25.000 FPS
Color space : YUV
Chroma subsampling : 4:2:0
Bit depth : 8 bits
Scan type : Progressive
Bits/(Pixel*Frame) : 0.063
Stream size : 660 MiB (83%)
Writing library : x264 core 148 r2638 7599210
Language : Chinese
Default : Yes
Forced : No

Audio
ID : 2
Format : AC-3
Format/Info : Audio Coding 3
Mode : Dolby Digital
Format settings, Endianness : Big
Codec ID : A_AC3
Duration : 1 h 25 min
Bit rate mode : Constant
Bit rate : 224 kb/s
Channel(s) : 2 channels
Channel positions : Front: L R
Sampling rate : 48.0 kHz
Frame rate : 31.250 FPS (1536 SPF)
Bit depth : 16 bits
Compression mode : Lossy
Stream size : 137 MiB (17%)
Language : Hindi
Service kind : Complete Main
Default : Yes
Forced : No

Text
ID : 3
Format : UTF-8
Codec ID : S_TEXT/UTF8
Codec ID/Info : UTF-8 Plain Text
Duration : 1 h 25 min
Bit rate : 20 b/s
Count of elements : 367
Stream size : 12.5 KiB (0%)
Language : English
Default : Yes
Forced : No

Screen Shoots

Files:

  • The Bodyguard (2016) 720p Hindi Dubbed HDRip x264 AC3 ESub by Full4movies.mkv (797.8 MB)

There are currently no comments. Feel free to leave one :)

Code:

  • udp://tracker.coppersurfer.tk:6969/announce
  • udp://tracker.opentrackr.org:1337/announce
  • udp://9.rarbg.me:2710/announce
  • udp://tracker.torrent.eu.org:451/announce
  • udp://open.stealth.si:80/announce
  • udp://public.popcorn-tracker.org:6969/announce
  • udp://p4p.arenabg.ch:1337/announce
  • udp://tracker.zer0day.to:1337/announce
  • udp://tracker.pirateparty.gr:6969/announce
  • udp://tracker.leechers-paradise.org:6969/announce
  • udp://tracker.tiny-vps.com:6969/announce
  • udp://bt.firebit.co.uk:6969/announce
  • udp://inferno.demonoid.pw:3397/announce
  • udp://shadowshq.yi.org:6969/announce
  • udp://9.rarbg.to:2780/announce