Sorties cinéma sud-coréen : juillet / août 2018 | Fantasyfilm | Pretty Little Liars

Superfly (2018) HDCAMRip x264 AAC by Full4movies.mkv

  • Category Movies
  • Type h.264/x264
  • Language English
  • Total size 462.0 MB
  • Uploaded By shmasti
  • Downloads 141
  • Last checked 1 month ago
  • Date uploaded 1 month ago
  • Seeders 11
  • Leechers 3

Infohash : 694E61EFDDFC50BD91387E4A4243581060270875



General
Complete name : Superfly (2018) HDCAMRip x264 AAC by Full4movies.mkv
Format : Matroska
Format version : Version 4 / Version 2
File size : 462 MiB
Duration : 1 h 51 min
Overall bit rate : 582 kb/s
Encoded date : UTC 2018-07-12 18:13:04
Writing application : mkvmerge v8.1.0 ('Psychedelic Postcard') 32bit
Writing library : libebml v1.3.1 + libmatroska v1.4.2

Video
ID : 1
Format : AVC
Format/Info : Advanced Video Codec
Format profile : [email protected]
Format settings, CABAC : Yes
Format settings, RefFrames : 5 frames
Codec ID : V_MPEG4/ISO/AVC
Duration : 1 h 51 min
Bit rate : 512 kb/s
Width : 720 pixels
Height : 304 pixels
Display aspect ratio : 2.35:1
Frame rate mode : Constant
Frame rate : 29.970 FPS
Color space : YUV
Chroma subsampling : 4:2:0
Bit depth : 8 bits
Scan type : Progressive
Bits/(Pixel*Frame) : 0.078
Stream size : 409 MiB (89%)
Writing library : x264 core 148 r2643 5c65704
Language : English
Default : Yes
Forced : No

Audio
ID : 2
Format : AAC
Format/Info : Advanced Audio Codec
Format profile : LC
Codec ID : A_AAC
Duration : 1 h 51 min
Bit rate : 64.2 kb/s
Channel(s) : 2 channels
Channel positions : Front: L R
Sampling rate : 48.0 kHz
Frame rate : 46.875 FPS (1024 SPF)
Compression mode : Lossy
Stream size : 51.0 MiB (11%)
Language : English
Default : Yes
Forced : No

Screen Shoots

Files:

  • Superfly (2018) HDCAMRip x264 AAC by Full4movies.mkv (462.0 MB)

There are currently no comments. Feel free to leave one :)

Code:

  • udp://tracker.coppersurfer.tk:6969/announce
  • udp://tracker.opentrackr.org:1337/announce
  • udp://9.rarbg.me:2710/announce
  • udp://tracker.torrent.eu.org:451/announce
  • udp://open.stealth.si:80/announce
  • udp://public.popcorn-tracker.org:6969/announce
  • udp://p4p.arenabg.ch:1337/announce
  • udp://tracker.zer0day.to:1337/announce
  • udp://tracker.pirateparty.gr:6969/announce
  • udp://tracker.leechers-paradise.org:6969/announce
  • udp://tracker.tiny-vps.com:6969/announce
  • udp://bt.firebit.co.uk:6969/announce
  • udp://inferno.demonoid.pw:3397/announce
  • udp://shadowshq.yi.org:6969/announce
  • udp://9.rarbg.to:2780/announce