Looking Glass 2018 | The Time of Their Lives | Season 2 Episode 19 The Many Mouths of Aaron Colville

Ant-Man (2015) 1080p BluRay Hindi DD 5.1Ch - Eng DTS 5.1Ch ~ MAN...

  • Category Movies
  • Type Dubs/Dual Audio
  • Language English
  • Total size 4.3 GB
  • Uploaded By THEGABRU
  • Downloads 476
  • Last checked 1 month ago
  • Date uploaded 1 month ago
  • Seeders 6
  • Leechers 6

Ant-Man

ActionAdventureScience Fiction

Armed with the astonishing ability to shrink in scale but increase in strength, con-man Scott Lang must embrace his inner-hero and help his mentor, Dr. Hank Pym, protect the secret behind his spectacular Ant-Man suit from a new generation of towering threats. Against seemingly insurmountable obstacles, Pym and Lang must plan and pull off a heist that will save the world.

Infohash : 0F198E60D5B08C2AFADDAC9D7BF12693EFEBA778

Ant-Man (2015) 1080p BluRay Hindi DD 5.1Ch - Eng DTS 5.1Ch ~ MANN KT



General

Format : Matroska
Format version : Version 4 / Version 2
File size : 4.29 GiB
Duration : 1 h 57 min
Overall bit rate mode : Variable
Overall bit rate : 5 243 kb/s
Movie name : MANN KT


Video
ID : 1
Format : AVC
Format/Info : Advanced Video Codec
Format profile : [email protected]
Format settings, CABAC : Yes
Format settings, ReFrames : 4 frames
Codec ID : V_MPEG4/ISO/AVC
Duration : 1 h 57 min
Bit rate mode : Variable
Bit rate : 4 082 kb/s
Maximum bit rate : 25.0 Mb/s
Width : 1 920 pixels
Height : 1 040 pixels
Display aspect ratio : 1.85:1
Frame rate mode : Constant
Frame rate : 23.976 (24000/1001) FPS
Color space : YUV
Chroma subsampling : 4:2:0
Bit depth : 8 bits
Scan type : Progressive
Bits/(Pixel*Frame) : 0.085
Stream size : 3.34 GiB (78%)
Title : MANN KT
Language : English
Default : Yes
Forced : No

Audio #1
ID : 2
Format : AC-3
Format/Info : Audio Coding 3
Mode extension : CM (complete main)
Format settings, Endianness : Big
Codec ID : A_AC3
Duration : 1 h 57 min
Bit rate mode : Constant
Bit rate : 384 kb/s
Channel(s) : 6 channels
Channel positions : Front: L C R, Side: L R, LFE
Sampling rate : 48.0 kHz
Frame rate : 31.250 FPS (1536 spf)
Bit depth : 16 bits
Compression mode : Lossy
Stream size : 322 MiB (7%)
Title : MANN KT
Language : Hindi
Default : Yes
Forced : No

Audio #2
ID : 3
Format : DTS
Format/Info : Digital Theater Systems
Mode : 16
Format settings, Endianness : Big
Codec ID : A_DTS
Duration : 1 h 57 min
Bit rate mode : Constant
Bit rate : 768 kb/s
Channel(s) : 6 channels
Channel positions : Front: L C R, Side: L R, LFE
Sampling rate : 48.0 kHz
Frame rate : 93.750 FPS (512 spf)
Bit depth : 16 bits
Compression mode : Lossy
Stream size : 643 MiB (15%)
Title : MANN KT
Language : English
Default : No
Forced : No

Text
ID : 4
Format : VobSub
Muxing mode : zlib
Codec ID : S_VOBSUB
Codec ID/Info : Picture based subtitle format used on DVDs
Duration : 1 h 56 min
Bit rate : 11.0 kb/s
Count of elements : 1716
Stream size : 9.18 MiB (0%)
Title : MANN KT
Language : English
Default : No
Forced : No

SCREENSHOTS

Files:

Ant-Man (2015) Movie
  • Ant-Man (2015).mkv (4.3 GB)
Sample
  • Sample.mkv (32.7 MB)
Screens
  • Ant-Man (2015).jpg (10.7 MB)

Comments

Code:

  • udp://tracker.coppersurfer.tk:6969/announce
  • udp://tracker.pirateparty.gr:6969/announce
  • udp://shadowshq.yi.org:6969/announce
  • udp://eddie4.nl:6969/announce
  • udp://tracker.leechers-paradise.org:6969/announce
  • udp://tracker.opentrackr.org:1337/announce
  • udp://p4p.arenabg.ch:1337/announce
  • udp://p4p.arenabg.com:1337/announce
  • udp://9.rarbg.me:2710/announce
  • udp://9.rarbg.to:2710/announce
  • udp://tracker.coppersurfer.tk:80/announce
  • udp://tracker.vanitycore.co:6969/announce
  • udp://public.popcorn-tracker.org:6969/announce
  • udp://tracker.opentrackr.org:1337/announce
  • udp://tracker.zer0day.to:1337/announce