Click to share on Twitter (Opens in new window) | Charles Thompson | Firestorm (Fung bou) en castellano ,sub

Angrezi Mein Kehte Hain 2018 x264 720p HD Esub Hindi GOPISAHI

  • Category Movies
  • Type Bollywood
  • Language Hindi
  • Total size 625.6 MB
  • Uploaded By PENDUDESI
  • Downloads 755
  • Last checked 1 month ago
  • Date uploaded 1 month ago
  • Seeders 13
  • Leechers 5

Infohash : B4572C6E6860506563523F2823EB3B3783B52FF7

http://www.gopisahi.pw/

Format : Matroska
Format version : Version 4 / Version 2
File size : 626 MiB
Duration : 1 h 48 min
Overall bit rate : 808 kb/s
Movie name : Angrezi Mein Kehte Hain 2018 GOPISAHI

Video
Format : AVC
Codec ID : V_MPEG4/ISO/AVC
Duration : 1 h 48 min
Bit rate : 710 kb/s
Width : 1 280 pixels
Height : 720 pixels
Display aspect ratio : 2.35:1
Frame rate mode : Constant
Frame rate : 23.976 (24000/1001) FPS
Color space : YUV
Chroma subsampling : 4:2:0
Bit depth : 8 bits
Scan type : Progressive
Bits/(Pixel*Frame) : 0.032
Stream size : 549 MiB (88%)
Title : GOPISAHI
Writing library : x264 core 155 r2901 7d0ff22
Language : Hindi

Audio
Format : AAC
Duration : 1 h 48 min
Bit rate : 96.0 kb/s
Channel(s) : 2 channels
Channel positions : Front: L R
Sampling rate : 48.0 kHz
Frame rate : 46.875 FPS (1024 SPF)
Compression mode : Lossy
Delay relative to video : 1 s 2 ms
Stream size : 74.4 MiB (12%)
Title : GOPISAHI
Language : Hindi

Text
Language : English


Files:

  • Angrezi Mein Kehte Hain 2018 x264 720p HD Esub Hindi GOPISAHI.mkv (625.6 MB)

There are currently no comments. Feel free to leave one :)

Code:

  • udp://9.rarbg.com:2740/announce
  • udp://9.rarbg.to:2800/announce
  • udp://inferno.demonoid.pw:3391/announce
  • udp://tracker.leechers-paradise.org:6969/announce
  • udp://tracker.coppersurfer.tk:80/announce
  • udp://tracker.coppersurfer.tk:6969/announce
  • udp://tracker.opentrackr.org:1337/announce
  • udp://p4p.arenabg.com:1337/announce
  • UDP://EDDIE4.NL:6969/ANNOUNCE
  • udp://tracker.pirateparty.gr:6969/announce
  • udp://tracker.tiny-vps.com:6969/announce
  • udp://public.popcorn-tracker.org:6969/announce
  • udp://tracker.torrent.eu.org:451/announce