Frantic | 1988 | 720p | Dual | Télécharger Part 15 | Le jeune Karl Marx

Nascar 2018 MECS Coca-Cola 600 HDTV x264 720

  • Category TV
  • Type HD
  • Language English
  • Total size 5.8 GB
  • Uploaded By HackRF
  • Downloads 44
  • Last checked 23 minutes ago
  • Date uploaded 7 hours ago
  • Seeders 33
  • Leechers 29

Infohash : F310267AEDA21773F08E95582F05BDBC08D9DB56

Nascar 2018 Monster Energy Series

Coca-Cola 600
Charlotte Motor Speedway
Sunday, May 27
6:00 PM





General
Complete name : Nascar 2018 MECS Coca-Cola 600 HDTV x264 720.mkv
Format : Matroska
Format version : Version 4 / Version 2
File size : 5.77 GiB
Duration : 3 h 24 min
Overall bit rate : 4 050 kb/s
Encoded date : UTC 2018-05-28 08:01:16
Writing application : mkvmerge v15.0.0 ('Duel with the Devil') 64-bit
Writing library : libebml v1.3.5 + libmatroska v1.4.5

Video
ID : 1
Format : AVC
Format/Info : Advanced Video Codec
Format profile : [email protected]
Format settings, CABAC : Yes
Format settings, RefFrames : 5 frames
Codec ID : V_MPEG4/ISO/AVC
Duration : 3 h 24 min
Bit rate : 3 662 kb/s
Width : 1 280 pixels
Height : 720 pixels
Display aspect ratio : 16:9
Frame rate mode : Constant
Frame rate : 59.940 (60000/1001) FPS
Color space : YUV
Chroma subsampling : 4:2:0
Bit depth : 8 bits
Scan type : Progressive
Bits/(Pixel*Frame) : 0.066
Stream size : 5.22 GiB (90%)
Writing library : x264 core 152 r2851 ba24899
Default : Yes
Forced : No

Audio
ID : 2
Format : AC-3
Format/Info : Audio Coding 3
Format settings, Endianness : Big
Codec ID : A_AC3
Duration : 3 h 24 min
Bit rate mode : Constant
Bit rate : 384 kb/s
Channel(s) : 6 channels
Channel positions : Front: L C R, Side: L R, LFE
Sampling rate : 48.0 kHz
Frame rate : 31.250 FPS (1536 SPF)
Bit depth : 16 bits
Compression mode : Lossy
Stream size : 561 MiB (9%)
Language : new
Service kind : Complete Main
Default : Yes
Forced : No

Files:

Nascar 2018 MECS Coca-Cola 600 HDTV x264 720
  • Downloaded from biharrelief.org.txt (0.3 KB)
  • Downloaded from demonoid.pw.txt (0.4 KB)
  • nascar.txt (3.8 KB)
  • Downloaded from Katcr.co .txt (6.0 KB)
  • Nascar 2018 MECS Coca-Cola 600 HDTV x264 720.mkv (5.8 GB)

There are currently no comments. Feel free to leave one :)

Code:

  • udp://tracker.coppersurfer.tk:6969/announce
  • udp://tracker.trackerfix.com:80/announce
  • udp://9.rarbg.me:2710/announce
  • http://tracker.opentrackr.org:1337/announce
  • udp://inferno.demonoid.pw:3393/announce
  • udp://tracker.ilibr.org:6969/announce
  • udp://tracker.leechers-paradise.org:6969/announce
  • udp://tracker.zer0day.to:1337/announce
  • udp://eddie4.nl:6969/announce
  • udp://inferno.demonoid.pw:3391/announce
  • udp://tracker.leechers-paradise.org:6969