La Reine d'Espagne | Portable | Kate Rees Davies

[60mbAnime.com] Trinity Seven Movie Eternity Library to Alchemic ...

  • Category Anime
  • Type Dubbed
  • Language English
  • Total size 1,022.9 MB
  • Uploaded By 60mbAnime
  • Downloads 9
  • Last checked 30 minutes ago
  • Date uploaded 1 hour ago
  • Seeders 1
  • Leechers 0

Infohash : E35CC1002C00C6A340DB17A3E9F05CE86D1327D2

General
Unique ID : 285303780918588700268568045724714058830 (0xD6A3826E0DFD02860B92CF4A6BF2C44E)
Complete name : [60mbAnime.com] Trinity Seven Movie Eternity Library to Alchemic Girl [1080].mkv
Format : Matroska
Format version : Version 2
File size : 1 023 MiB
Duration : 55 min 47 s
Overall bit rate : 2 563 kb/s
Encoded date : UTC 2018-05-19 06:20:43
Writing application : mkvmerge v22.0.0 ('At The End Of The World') 64-bit
Writing library : libebml v1.3.5 + libmatroska v1.4.8

Video
ID : 1
Format : HEVC
Format/Info : High Efficiency Video Coding
Format profile : [email protected]@Main
Codec ID : V_MPEGH/ISO/HEVC
Duration : 55 min 47 s
Bit rate : 2 405 kb/s
Width : 1 920 pixels
Height : 1 080 pixels
Display aspect ratio : 16:9
Frame rate mode : Constant
Frame rate : 23.904 FPS
Color space : YUV
Chroma subsampling : 4:2:0
Bit depth : 8 bits
Bits/(Pixel*Frame) : 0.049
Stream size : 960 MiB (94%)
Default : Yes
Forced : No

Audio
ID : 2
Format : AAC
Format/Info : Advanced Audio Codec
Format profile : LC
Codec ID : A_AAC-2
Duration : 55 min 37 s
Bit rate : 156 kb/s
Channel(s) : 2 channels
Channel positions : Front: L R
Sampling rate : 44.1 kHz
Frame rate : 43.066 FPS (1024 SPF)
Compression mode : Lossy
Delay relative to video : 10 ms
Stream size : 62.2 MiB (6%)
Language : English
Default : Yes
Forced : No

Text
ID : 3
Format : ASS
Codec ID : S_TEXT/ASS
Codec ID/Info : Advanced Sub Station Alpha
Duration : 55 min 32 s
Bit rate : 144 b/s
Count of elements : 810
Compression mode : Lossless
Stream size : 58.8 KiB (0%)
Language : English
Default : Yes
Forced : No

Files:

  • [60mbAnime.com] Trinity Seven Movie Eternity Library to Alchemic Girl [1080].mkv (1,022.9 MB)

There are currently no comments. Feel free to leave one :)

Code:

  • http://anidex.moe:6969/announce